<?xml version="1.0" standalone="no"?>
<!DOCTYPE svg PUBLIC "-//W3C//DTD SVG 1.1//EN" "http://www.w3.org/Graphics/SVG/1.1/DTD/svg11.dtd" >
<!--
2013-9-30: Created.
-->
<svg>
<metadata>
Created by iconfont
</metadata>
<defs>

<font id="iconfont" horiz-adv-x="1024" >
  <font-face
    font-family="iconfont"
    font-weight="500"
    font-stretch="normal"
    units-per-em="1024"
    ascent="896"
    descent="-128"
  />
    <missing-glyph />
    
    <glyph glyph-name="x" unicode="x" horiz-adv-x="1001"
d="M281 543q-27 -1 -53 -1h-83q-18 0 -36.5 -6t-32.5 -18.5t-23 -32t-9 -45.5v-76h912v41q0 16 -0.5 30t-0.5 18q0 13 -5 29t-17 29.5t-31.5 22.5t-49.5 9h-133v-97h-438v97zM955 310v-52q0 -23 0.5 -52t0.5 -58t-10.5 -47.5t-26 -30t-33 -16t-31.5 -4.5q-14 -1 -29.5 -0.5
t-29.5 0.5h-32l-45 128h-439l-44 -128h-29h-34q-20 0 -45 1q-25 0 -41 9.5t-25.5 23t-13.5 29.5t-4 30v167h911zM163 247q-12 0 -21 -8.5t-9 -21.5t9 -21.5t21 -8.5q13 0 22 8.5t9 21.5t-9 21.5t-22 8.5zM316 123q-8 -26 -14 -48q-5 -19 -10.5 -37t-7.5 -25t-3 -15t1 -14.5
t9.5 -10.5t21.5 -4h37h67h81h80h64h36q23 0 34 12t2 38q-5 13 -9.5 30.5t-9.5 34.5q-5 19 -11 39h-368zM336 498v228q0 11 2.5 23t10 21.5t20.5 15.5t34 6h188q31 0 51.5 -14.5t20.5 -52.5v-227h-327z" />
    

    
    <glyph glyph-name="29" unicode="&#58904;" d="M316.928 418.624l120.064-238.656c0 0 195.008 484.992 502.656 646.656-7.488-115.456-37.504-215.552 14.976-338.752-135.04-30.784-412.672-377.28-502.72-546.624-127.488 161.664-277.632 284.864-382.656 323.392L316.928 418.624z"  horiz-adv-x="1024" />

    
    <glyph glyph-name="yinqing" unicode="&#58920;" d="M422.214332 360.70413299999996L186.183684 360.70413299999996l0 46.568461 236.030648 0c10.379577 40.075407 46.47537 69.794509 89.785668 69.794509 51.432433 0 93.067103-41.657943 93.067103-93.067103C605.067103 332.56756700000005 563.40916 290.909624 512 290.909624 468.689703 290.909624 432.593909 320.65199900000005 422.214332 360.70413299999996L422.214332 360.70413299999996zM512 779.634098c-218.529658 0-395.634098-177.10444-395.634098-395.634098 0-218.529658 177.10444-395.634098 395.634098-395.634098 154.76275 0 288.417257 89.064217 353.440885 218.55293l101.398692-59.112389-23.063141-39.959044-62.161099 35.909613c-33.745261-51.595341-77.42792-96.115813-129.093079-129.744711l35.653614-61.765464-40.308133-23.295867-35.653614 61.765464c-53.620057-27.345298-113.360805-44.404109-176.894987-47.73209L535.319139-127.99706800000001l-46.568461 0 0 70.981412c-63.534182 3.327981-123.27493 20.386792-176.894987 47.73209l-35.653614-61.765464-40.308133 23.295867 35.653614 61.765464c-51.665159 33.628898-95.347818 78.149371-129.093079 129.744711l-62.161099-35.909613-23.295867 40.308133 62.114553 35.863067c-27.415116 53.550239-44.799743 113.104807-48.127724 176.685534L0.002932 360.70413299999996l0 46.568461 70.958139 0c3.327981 63.580727 20.712609 123.135295 48.127724 176.685534l-62.114553 35.863067 23.295867 40.308133 62.161099-35.909613c33.745261 51.595341 77.42792 96.115813 129.093079 129.744711l-35.653614 61.765464 40.308133 23.295867 35.653614-61.765464c53.620057 27.345298 113.360805 44.404109 176.894987 47.73209L488.727406 895.997068l46.568461 0 0-70.981412c63.534182-3.327981 123.27493-20.386792 176.894987-47.73209l35.653614 61.765464 40.308133-23.295867-35.653614-61.765464c51.665159-33.628898 95.347818-78.149371 129.093079-129.744711l62.161099 35.909613 23.063141-39.959044-101.398692-59.112389C800.417257 690.569881 666.76275 779.634098 512 779.634098L512 779.634098z"  horiz-adv-x="1024" />

    
    <glyph glyph-name="htmal5icon23" unicode="&#58939;" d="M774.630513 656.439926c-66.918086 71.697949-162.516374 114.716718-267.673365 114.716718-210.315006 0-382.391107-172.0761-382.391107-382.391107s172.0761-382.391107 382.391107-382.391107c176.855964 0 325.031724 124.277468 368.051517 286.792818l-100.377128 0c-38.238906-109.936855-143.396921-191.195553-267.673365-191.195553-157.736511 0-286.792818 129.057331-286.792818 286.792818 0 157.736511 129.057331 286.792818 286.792818 286.792818 81.257675 0 148.176784-33.459043 200.75528-86.037539l-152.956647-152.956647 334.591451 0 0 334.591451L774.630513 656.439926z"  horiz-adv-x="1024" />

    
    <glyph glyph-name="wancheng" unicode="&#58902;" d="M512-96C246.896-96 32 118.89599999999996 32 384 32 649.104 246.896 864 512 864 777.104 864 992 649.104 992 384 992 118.89599999999996 777.104-96 512-96ZM792.832 536.832C780.704 548.96 761.024 548.96 748.896 536.832L447.536 235.47199999999998 276.032 406.976C264.16 418.864 244.896 418.864 233.024 406.976 221.136 395.104 221.136 375.84000000000003 233.024 363.96799999999996L419.664 177.32799999999997C421.12 174.41600000000005 422.688 171.53599999999994 425.12 169.10400000000004 437.232 156.976 456.912 156.976 469.04 169.10400000000004L792.832 492.896C804.96 505.024 804.96 524.704 792.832 536.832Z"  horiz-adv-x="1024" />

    
    <glyph glyph-name="shang" unicode="&#58905;" d="M511.609097-65.61925399999996M511.906879 534.759609l381.287983-381.270587c14.808264-14.785751 38.796608-14.785751 53.562916 0 14.807241 14.788821 14.807241 38.776142 0 53.584406L538.527167 615.299947c-14.790868 14.788821-38.777165 14.788821-53.585429 0-1.020236-1.01512-1.976004-2.099824-2.843768-3.206018L76.246545 206.28752899999995c-14.788821-14.808264-14.788821-38.795585 0-53.607942 14.808264-14.762215 38.796608-14.762215 53.585429 0L511.906879 534.759609 511.906879 534.759609 511.906879 534.759609zM511.906879 534.759609"  horiz-adv-x="1024" />

    
    <glyph glyph-name="xia" unicode="&#58906;" d="M511.609097-65.61925399999996M511.906879 233.24039100000005L511.906879 233.24039100000005 129.831974 615.3204129999999c-14.788821 14.762215-38.777165 14.762215-53.585429 0-14.788821-14.812357-14.788821-38.799678 0-53.607942l405.851425-405.805376c0.867764-1.107217 1.824555-2.190899 2.843768-3.206018 14.808264-14.788821 38.795585-14.788821 53.585429 0l408.230612 408.226518c14.807241 14.808264 14.807241 38.795585 0 53.584406-14.767332 14.785751-38.754652 14.785751-53.562916 0L511.906879 233.24039100000005 511.906879 233.24039100000005zM511.906879 233.24039100000005"  horiz-adv-x="1024" />

    
    <glyph glyph-name="you" unicode="&#58882;" d="M511.609097-65.61925399999996M662.268422 384.989537L280.997835 3.7005309999999554c-14.785751-14.808264-14.785751-38.796608 0-53.562916 14.788821-14.807241 38.776142-14.807241 53.584406 0l408.226518 408.230612c14.789844 14.790868 14.789844 38.777165 0 53.585429-1.01512 1.020236-2.099824 1.976004-3.206018 2.843768L333.797365 820.649871c-14.808264 14.788821-38.795585 14.788821-53.607942 0-14.762215-14.808264-14.762215-38.796608 0-53.585429L662.268422 384.989537 662.268422 384.989537 662.268422 384.989537zM662.268422 384.989537"  horiz-adv-x="1024" />

    
    <glyph glyph-name="zuo" unicode="&#58883;" d="M511.609097-65.61925399999996M360.749204 384.989537L360.749204 384.989537l382.080022 382.074905c14.762215 14.788821 14.762215 38.777165 0 53.585429-14.812357 14.788821-38.799678 14.788821-53.607942 0L283.415908 414.798447c-1.107217-0.867764-2.190899-1.824555-3.206018-2.843768-14.788821-14.808264-14.788821-38.795585 0-53.585429l408.226518-408.230612c14.808264-14.807241 38.795585-14.807241 53.584406 0 14.785751 14.767332 14.785751 38.754652 0 53.562916L360.749204 384.989537 360.749204 384.989537zM360.749204 384.989537"  horiz-adv-x="1024" />

    
    <glyph glyph-name="danxuankuang" unicode="&#58943;" d="M544 768C314.24 768 128 581.76 128 352 128 122.24000000000001 314.24-64 544-64c229.76 0 416 186.24 416 416C960 581.76 773.76 768 544 768zM544 0C349.44 0 192 157.44000000000005 192 352 192 546.56 349.44 704 544 704 738.56 704 896 546.56 896 352 896 157.44000000000005 738.56 0 544 0z"  horiz-adv-x="1024" />

    
    <glyph glyph-name="danxuankuangxuanzhong" unicode="&#58947;" d="M544 768C314.24 768 128 581.76 128 352 128 122.24000000000001 314.24-64 544-64c229.76 0 416 186.24 416 416C960 581.76 773.76 768 544 768zM544 0C349.44 0 192 157.44000000000005 192 352 192 546.56 349.44 704 544 704 738.56 704 896 546.56 896 352 896 157.44000000000005 738.56 0 544 0zM544 512C455.68 512 384 440.32 384 352 384 263.67999999999995 455.68 192 544 192 632.32 192 704 263.67999999999995 704 352 704 440.32 632.32 512 544 512z"  horiz-adv-x="1024" />

    
    <glyph glyph-name="fuxuankuang" unicode="&#59122;" d="M768 768 256 768C185.6 768 128 710.4 128 640l0-512c0-70.4 57.6-128 128-128l512 0c70.4 0 128 57.6 128 128L896 640C896 710.4 838.4 768 768 768zM832 128c0-35.2-28.8-64-64-64L256 64c-35.2 0-64 28.8-64 64L192 640c0 35.2 28.8 64 64 64l512 0c35.2 0 64-28.8 64-64L832 128z"  horiz-adv-x="1024" />

    
    <glyph glyph-name="fuxuankuangxuanzhong" unicode="&#59123;" d="M768 768 256 768C185.6 768 128 710.4 128 640l0-512c0-70.4 57.6-128 128-128l512 0c70.4 0 128 57.6 128 128L896 640C896 710.4 838.4 768 768 768zM823.04 581.12l-313.6-313.6C501.12 259.2 490.24 256.64 480 257.92 469.76 256.64 458.88 259.2 450.56 267.52l-185.6 185.6c-14.08 14.08-14.08 35.84 0 49.92 14.08 14.08 35.84 14.08 49.92 0L480 337.92l293.12 293.12c14.08 14.08 35.84 14.08 49.92 0C836.48 616.96 836.48 594.56 823.04 581.12z"  horiz-adv-x="1024" />

    
    <glyph glyph-name="house-1" unicode="&#32771;" d="M844.5952 139.13088000000005L844.5952 683.12064 618.496 683.12064l0-508.35456c-15.77984 3.39968-32.4608 5.21216-49.73568 5.21216-1.50528 0-3.0208-0.02048-4.51584-0.04096L564.24448 864.43008 143.75936 864.43008l0-803.072c-3.69664 0.50176-7.46496 0.75776-11.30496 0.75776-45.44512 0-82.39104-36.32128-83.59936-81.58208L48.78336-19.46623999999997l0-77.04576L962.1504-96.51199999999994 962.1504 57.79456000000005C947.8144 104.09983999999997 900.7616 138.22976000000006 844.5952 139.13088000000005L844.5952 139.13088000000005zM193.49504 796.42624l117.54496 0 0-117.8624L193.49504 678.56384 193.49504 796.42624 193.49504 796.42624zM193.49504 624.18944l117.54496 0 0-117.85216L193.49504 506.33728 193.49504 624.18944 193.49504 624.18944zM193.49504 451.9424l117.54496 0 0-117.8624L193.49504 334.08000000000004 193.49504 451.9424 193.49504 451.9424zM193.49504 279.69536000000005l117.54496 0 0-117.85216L193.49504 161.84320000000002 193.49504 279.69536000000005 193.49504 279.69536000000005zM659.2 642.31424l149.20704 0 0-31.71328L659.2 610.60096 659.2 642.31424 659.2 642.31424zM659.2 573.6652799999999l149.20704 0 0-31.73376L659.2 541.93152 659.2 573.6652799999999 659.2 573.6652799999999zM659.2 505.0368l149.20704 0 0-31.72352L659.2 473.31328 659.2 505.0368 659.2 505.0368zM659.2 436.39808l149.20704 0 0-31.744L659.2 404.65408 659.2 436.39808 659.2 436.39808zM659.2 367.75936l149.20704 0 0-31.71328L659.2 336.04607999999996 659.2 367.75936 659.2 367.75936zM659.2 299.1104l149.20704 0 0-31.73376L659.2 267.37663999999995 659.2 299.1104 659.2 299.1104zM659.2 230.48191999999995l149.20704 0 0-31.73376L659.2 198.74815999999998 659.2 230.48191999999995 659.2 230.48191999999995zM659.2 161.84320000000002l149.20704 0 0-26.86976c-5.26336-1.3312-10.37312-2.95936-15.32928-4.87424l-85.15584 0c-13.40416 12.60544-29.93152 23.3472-48.72192 31.5904L659.2 161.84320000000002 659.2 161.84320000000002zM659.2 161.84320000000002"  horiz-adv-x="1024" />

    
    <glyph glyph-name="xiugai07" unicode="&#58946;" d="M234.057143 142.62857099999997c14.628571 0 29.257143 7.314286 43.885714 14.628571l7.314286 0-146.285714 146.285714 0-7.314286C131.657143 281.6 124.342857 266.97142899999994 124.342857 252.34285699999998L73.142857 91.42857100000003 234.057143 142.62857099999997 234.057143 142.62857099999997 234.057143 142.62857099999997 234.057143 142.62857099999997zM746.057143 727.771429L702.171429 778.971429c-29.257143 29.257143-65.828571 29.257143-95.085714 0L563.2 727.771429l138.971429-138.971429 43.885714 43.885714C775.314286 661.942857 775.314286 705.828571 746.057143 727.771429L746.057143 727.771429 746.057143 727.771429 746.057143 727.771429zM658.285714 544.914286L519.314286 683.885714 190.171429 354.74285699999996l138.971429-138.971429L658.285714 544.914286 658.285714 544.914286 658.285714 544.914286 658.285714 544.914286zM0 18.285713999999984l1024 0 0-73.142857L0-54.85714299999995 0 18.285713999999984 0 18.285713999999984z"  horiz-adv-x="1024" />

    
    <glyph glyph-name="gouxuankuangweidagou" unicode="&#58918;" d="M18.250629 895.994149l987.523317 0c10.072016 0 18.238927-8.166911 18.238927-18.237756l0-987.525657c0-10.069676-8.166911-18.236586-18.238927-18.236586l-987.523317 0c-10.105952 0-18.238927 8.166911-18.238927 18.236586l0 987.525657C0.011702 887.827238 8.145847 895.994149 18.250629 895.994149L18.250629 895.994149zM987.535019 859.518636l-951.08057 0 0-951.047804 951.08057 0L987.535019 859.518636z"  horiz-adv-x="1025" />

    
    <glyph glyph-name="nan" unicode="&#58978;" d="M790.85952 312.84479999999996c0 76.19968-24.19072 148.67712-68.93184 208.67456l108.66176 108.66176 0-84.74496c0-14.14016 5.72928-26.9376 14.99648-36.20352 9.26336-9.26464 22.06592-14.99648 36.20352-14.99648 28.27648 0 51.2 22.92224 51.2 51.2l0 204.2112c0.11008 1.36832 0.18176 2.7456 0.18176 4.1408 0 14.18752-5.7728 27.02592-15.09504 36.29952-9.27232 9.31456-22.1056 15.08096-36.28672 15.08224-1.3952 0-2.77504-0.07168-4.14208-0.18176l-204.2112 0c-28.27648 0-51.2-22.92352-51.2-51.2 0-14.13888 5.73184-26.93888 14.99648-36.2048 9.26592-9.26464 22.06464-14.9952 36.20352-14.9952l84.74624 0-108.66176-108.66304c-59.99744 44.73856-132.47744 68.93056-208.67712 68.92928-93.49376 0-181.3888-36.40576-247.49824-102.51648C127.23712 494.2336 90.8288 406.336 90.8288 312.84223999999995c0.00128-93.49248 36.40832-181.38752 102.51776-247.49696 66.10816-66.10688 154.00448-102.5152 247.49696-102.5152 93.4912 0 181.39008 36.40704 247.49696 102.5152C754.45248 131.45471999999995 790.85824 219.35231999999996 790.85952 312.84479999999996zM440.84352 65.22752000000003c-66.14016 0.00256-128.32128 25.75744-175.08992 72.52736-46.76736 46.76736-72.52352 108.9472-72.5248 175.08736 0 66.14272 25.75616 128.32256 72.52352 175.0912 46.76864 46.76736 108.94848 72.52352 175.0912 72.5248 66.14016 0 128.32384-25.75744 175.08992-72.5248 46.76864-46.76864 72.5248-108.94848 72.5248-175.08864 0-66.14272-25.75744-128.32256-72.5248-175.09248C569.16608 90.98496 506.98368 65.22752000000003 440.84352 65.22752000000003z"  horiz-adv-x="1024" />

    
    <glyph glyph-name="nv" unicode="&#58977;" d="M870.69952 742.69952c-66.10688 66.10944-154.00448 102.51776-247.49696 102.51904-93.49248 0-181.3888-36.40832-247.49696-102.51648-66.11072-66.10944-102.51648-154.00576-102.51648-247.49952-0.00128-76.19968 24.19072-148.6784 68.93056-208.67584l-60.2048-60.20352L138.18496 370.05312000000004c-19.99488 19.99488-52.41216 19.99488-72.40704 0-19.99488-19.9936-19.99488-52.41216 0-72.40704l143.72992-143.72992-55.75552-55.75552c-19.9936-19.9936-19.9936-52.41216 0-72.40576 19.99616-19.99616 52.41344-19.99488 72.40832 0l55.75424 55.75424 143.7312-143.72992c19.9936-19.99488 52.41088-19.99488 72.40576 0 19.99616 19.99488 19.99616 52.41216 0 72.40704L354.32192 153.91488000000004l60.2048 60.20352c59.99872-44.73856 132.47616-68.93184 208.67584-68.93184 93.49248 0 181.38752 36.40832 247.49696 102.51776s102.51776 154.00576 102.51776 247.49824C973.21728 588.6950400000001 936.80768 676.59264 870.69952 742.69952zM798.29248 320.11264000000006c-46.76736-46.76736-108.94976-72.5248-175.08992-72.5248s-128.32128 25.75744-175.08992 72.5248c-46.76864 46.76736-72.5248 108.94976-72.5248 175.08992 0.00128 66.14272 25.75616 128.32384 72.5248 175.0912 46.76736 46.76864 108.94976 72.5248 175.08992 72.5248 66.14016-0.00128 128.32256-25.75744 175.08992-72.52608 46.76736-46.76736 72.5248-108.94848 72.5248-175.08864C870.81728 429.0624 845.0624 366.88127999999995 798.29248 320.11264000000006z"  horiz-adv-x="1024" />

    
    <glyph glyph-name="yonghu1" unicode="&#59248;" d="M102.7328-27.898879999999963c-16.69632 0-30.27968 13.48096-30.27968 30.04416l0 73.63584c0 73.54368 22.2464 144.35328 64.33792 204.75904 41.10336 58.98752 98.16576 104.20224 165.02272 130.7392l11.00288 4.37248-9.33376 7.28576C250.88 463.98976 220.70784 525.3376000000001 220.70784 591.25248c0 118.07232 96.72192 214.12864 215.6032 214.12864 118.87616 0 215.59808-96.06144 215.59808-214.12864 0-65.91488-30.17216-127.26272-82.76992-168.32l-9.33376-7.28576 11.00288-4.37248c66.86208-26.53696 123.92448-71.73632 165.02272-130.71872 42.0864-60.40576 64.3328-131.22048 64.3328-204.77952l0-73.63584c0-16.5632-13.58336-30.03904-30.27968-30.03904L102.7328-27.898879999999963 102.7328-27.898879999999963zM436.352 377.11872000000005c-167.25504 0-303.32928-135.18336-303.32928-301.3376l0-43.60192 606.58688 0 0 43.60192C739.60448 241.93535999999995 603.56608 377.11872000000005 436.352 377.11872000000005L436.352 377.11872000000005zM436.31616 745.30816c-85.48864 0-155.03872-69.10976-155.03872-154.0608 0-84.94592 69.55008-154.05568 155.03872-154.05568 85.48352 0 155.0336 69.10976 155.0336 154.05568C591.34976 676.1984 521.79968 745.30816 436.31616 745.30816L436.31616 745.30816zM858.06592 82.56511999999998c-0.36352 20.15232-2.37056 40.28928-5.96992 60.06272l35.37408 0 0 26.9312c0 104.2944-71.06048 194.95936-172.8 220.47744l-7.0144 1.664c-12.99456 4.4288-21.70368 15.68768-21.70368 28.10368 0 12.1088 8.09984 22.98368 20.6336 27.70432l0.2048 0.0768 0.19456 0.09216c42.09664 18.98496 69.29408 60.8768 69.29408 106.71616 0 49.65888-31.44192 93.48096-78.592 110.11584-7.91552 23.09632-19.49184 44.68736-34.44224 64.24064-0.60928 0.99328-1.22368 1.98144-1.83808 2.9696 97.00864-1.65888 175.43168-80.56832 175.43168-177.32608 0-43.89376-16.49664-86.13376-46.44352-118.9376l-5.97504-6.54848 7.8848-4.06016c96.05632-49.41824 155.7248-147.23584 155.71968-255.28832l0-56.96c0-16.55808-13.57824-30.0288-30.27456-30.0288L858.06592 82.57024000000001 858.06592 82.56511999999998z"  horiz-adv-x="1025" />

    
    <glyph glyph-name="sanjiaoxing-right" unicode="&#58915;" d="M319.981 63.815000000000055v640.37l384.016-320.184z"  horiz-adv-x="1024" />

    
    <glyph glyph-name="sanjiaoxing-down" unicode="&#58917;" d="M191.815 576.019h640.37l-320.184-384.016z"  horiz-adv-x="1024" />

    
    <glyph glyph-name="device-1" unicode="&#32770;" d="M885.312 122.68799999999999L138.688 122.68799999999999C90.432 122.68799999999999 64 150.39999999999998 64 197.24800000000005L64 682.688c0 46.848 26.432 74.688 74.688 74.688l746.688 0C933.568 757.312 960 729.472 960 682.688l0-485.376C960 150.39999999999998 933.568 122.68799999999999 885.312 122.68799999999999zM885.312 682.688L138.688 682.688l0-485.312 746.688 0L885.376 682.688zM472.384 305.72799999999995L446.016 332.15999999999997l-105.6 105.6 52.8 52.8 79.168-79.168 158.4 158.4 52.8-52.8L498.816 332.15999999999997 472.384 305.72799999999995zM307.2 67.26400000000001l83.2 0 9.6 18.048 224 0 9.6-18.048 83.2 0c16.128 0 29.184-12.672 29.184-28.288 0-15.616-13.056-28.288-29.184-28.288L307.2 10.687999999999988c-16.128 0-29.12 12.672-29.12 28.288C278.08 54.591999999999985 291.072 67.26400000000001 307.2 67.26400000000001z"  horiz-adv-x="1024" />

    
    <glyph glyph-name="guanbi1" unicode="&#4102;" d="M561.036 394.101l287.258 285.766c6.32 6.273 10.231 14.962 10.231 24.567 0 9.535-3.856 18.171-10.092 24.429-6.268 6.325-14.959 10.243-24.565 10.243-9.538 0-18.174-3.862-24.429-10.105l-287.329-285.801-284.828 285.702c-13.479 13.515-35.414 13.582-48.997 0.071-13.55-13.515-13.582-35.45-0.071-49.031l284.761-285.628-287.12-285.596c-6.32-6.273-10.23-14.962-10.23-24.567 0-9.535 3.856-18.171 10.092-24.429 6.267-6.314 14.951-10.223 24.549-10.223 0.007 0 0.013 0 0.021 0 8.835 0 17.67 3.362 24.429 10.081l287.191 285.663 287.431-288.297c6.248-6.293 14.901-10.189 24.465-10.189 0.023 0 0.048 0 0.072 0 0.002 0 0.007 0 0.015 0 9.545 0 18.187 3.866 24.444 10.118 13.55 13.515 13.582 35.414 0.071 48.996l-287.368 288.231z"  horiz-adv-x="1024" />

    
    <glyph glyph-name="sousuo" unicode="&#58901;" d="M439.323 120.52200000000005c-49.28 0-97.098 9.657-142.126 28.7-43.48 18.389-82.523 44.706-116.044 78.225s-59.841 72.561-78.23 116.04c-19.044 45.027-28.7 92.844-28.7 142.122 0 49.285 9.656 97.105 28.7 142.133 18.388 43.48 44.71 82.52 78.231 116.04C214.673 777.295 253.717 803.613 297.198 822c45.027 19.04 92.846 28.694 142.125 28.694 49.28 0 97.1-9.654 142.127-28.694 43.481-18.386 82.526-44.705 116.045-78.22 33.52-33.52 59.842-72.56 78.23-116.04 19.043-45.028 28.7-92.848 28.7-142.133 0-49.278-9.657-97.095-28.702-142.123-18.388-43.477-44.708-82.52-78.228-116.039S624.93 167.60799999999995 581.45 149.22000000000003c-45.028-19.043-92.847-28.698-142.128-28.698z m0 676.961c-171.975 0-311.888-139.906-311.888-311.875s139.913-311.874 311.888-311.874 311.888 139.908 311.888 311.874S611.3 797.483 439.323 797.483z m451.355-846.218c-22.122 0-42.904 8.562-58.541 24.116L674.673 128.02499999999998l37.039 38.206L869.6 13.172000000000025c5.607-5.606 13.092-8.693 21.078-8.693 7.983 0 15.465 3.088 21.07 8.691 5.617 5.622 8.717 13.127 8.717 21.123 0 7.981-3.092 15.463-8.703 21.068l-0.302 0.307-152.746 157.563 38.208 37.035L949.534 92.84000000000003c15.571-15.638 24.145-36.423 24.145-58.55 0-22.195-8.626-43.054-24.287-58.736-15.669-15.665-36.515-24.288-58.714-24.288zM281.015 327.245c-42.34 42.321-65.652 98.585-65.643 158.421 0.008 59.819 23.319 116.075 65.637 158.408l37.635-37.62c-66.607-66.629-66.61-175-0.007-241.577l-37.622-37.632z"  horiz-adv-x="1024" />

    
    <glyph glyph-name="guanbi" unicode="&#4103;" d="M960 384c0 249.6-198.4 448-448 448S64 633.6 64 384s198.4-448 448-448 448 198.4 448 448zM691.2 160L512 339.20000000000005 332.8 160c-12.8-12.8-32-12.8-44.8 0-12.8 12.8-12.8 32 0 44.8L467.2 384 288 563.2c-12.8 12.8-12.8 32 0 44.8 12.8 12.8 32 12.8 44.8 0L512 428.8 691.2 608c12.8 12.8 32 12.8 44.8 0 12.8-12.8 12.8-32 0-44.8L556.8 384 736 204.79999999999995c12.8-12.8 12.8-32 0-44.8-12.8-12.8-32-12.8-44.8 0z"  horiz-adv-x="1024" />

    
    <glyph glyph-name="add" unicode="&#58964;" d="M896 448H576V768c0 35.2-28.8 64-64 64s-64-28.8-64-64v-320H128c-35.2 0-64-28.8-64-64s28.8-64 64-64h320v-320c0-35.2 28.8-64 64-64s64 28.8 64 64V320h320c35.2 0 64 28.8 64 64s-28.8 64-64 64z"  horiz-adv-x="1024" />

    
    <glyph glyph-name="icon-test" unicode="&#59036;" d="M841.10545438 697.65818156c-6.63272719 6.98181844-17.71636406 7.24363594-24.69818157 0.61090969-6.98181844-6.63272719-7.24363594-17.71636406-0.61090875-24.6981825 74.44363594-78.19636406 115.37454562-180.74181844 115.37454469-288.69818156 0-56.55272719-11.08363594-111.44727281-32.9018175-163.02545438-21.12-49.92-51.31636406-94.69090875-89.80363688-133.17818156s-83.25818156-68.68363594-133.17818156-89.80363687c-51.66545437-21.81818156-106.47272719-32.90181844-163.02545437-32.90181844s-111.44727281 11.08363594-163.02545438 32.90181844c-49.92 21.12-94.69090875 51.31636406-133.1781825 89.80363687S147.37454562 171.92727280999998 126.25454562 221.84727281000005c-21.81818156 51.66545437-32.90181844 106.47272719-32.90181843 163.02545438S104.43636406 496.32 126.25454562 547.89818156c21.12 49.92 51.31636406 94.69090875 89.80363594 133.1781825s83.25818156 68.68363594 133.1781825 89.80363594c51.66545437 21.81818156 106.47272719 32.90181844 163.02545438 32.90181844 73.22181844 0 145.30909125-19.2 208.40727281-55.4181825 8.37818156-4.8 19.02545438-1.92 23.82545437 6.4581825 4.8 8.37818156 1.92 19.02545438-6.45818156 23.82545437C669.70181844 817.92 591.59272719 838.69090875 512.26181844 838.69090875 450.99636406 838.69090875 391.56363594 826.64727281 335.62181844 802.99636406 281.6 780.13090875 233.07636406 747.40363594 191.36 705.77454562 149.64363594 664.14545437 117.00363594 615.53454562 94.13818156 561.5127271900001 70.48727281 505.57090875 58.44363594 446.13818156 58.44363594 384.87272719s12.04363594-120.69818156 35.69454562-176.64c22.86545438-54.02181844 55.59272719-102.54545437 97.22181844-144.26181844 41.62909125-41.71636406 90.24-74.35636406 144.26181844-97.2218175 55.94181844-23.65090875 115.37454562-35.69454563 176.64-35.69454563s120.69818156 12.04363594 176.64 35.69454563c54.02181844 22.86545438 102.54545437 55.59272719 144.2618175 97.2218175 41.71636406 41.62909125 74.35636406 90.24 97.22181843 144.26181844 23.65090875 55.94181844 35.69454563 115.37454562 35.69454563 176.64 0 117.03272719-44.42181844 228.04363594-124.97454563 312.78545437zM337.71636406 487.41818156m-43.63636406 0a43.63636406 43.63636406 0 1 1 87.27272719 0 43.63636406 43.63636406 0 1 1-87.27272719 0ZM686.80727281 487.41818156m-43.63636406 0a43.63636406 43.63636406 0 1 1 87.27272719 0 43.63636406 43.63636406 0 1 1-87.27272719 0ZM324.62545438 151.67999999999995c3.75272719 0 7.50545437 1.22181844 10.64727281 3.66545437 19.89818156 15.44727281 46.08 28.27636406 75.66545437 37.09090969 31.50545437 9.42545437 65.62909125 14.22545437 101.32363688 14.22545438 35.69454563 0 69.81818156-4.8 101.32363593-14.22545438 29.58545438-8.81454562 55.76727281-21.64363594 75.66545438-37.09090968 7.59272719-5.93454563 18.58909125-4.53818156 24.52363688 3.14181843 5.93454563 7.59272719 4.53818156 18.58909125-3.14181844 24.52363594-48.08727281 37.26545437-120.43636406 58.64727281-198.28363594 58.64727281-77.93454562 0-150.19636406-21.38181844-198.28363687-58.64727281-7.59272719-5.93454563-8.98909125-16.84363594-3.14181844-24.52363594 3.31636406-4.45090875 8.55272719-6.80727281 13.70181844-6.80727281z"  horiz-adv-x="1024" />

    
    <glyph glyph-name="icon-test1" unicode="&#59055;" d="M828.5587392 685.1677088c-7.5465696 7.94375787-20.15728533 8.241648-28.10104213 0.69507947-7.94375787-7.5465696-8.241648-20.15728533-0.6950784-28.1010432C870.36276373 583.5869088 909.1878784 486.37517547 909.1878784 384c0-53.62036373-10.5254784-105.65197547-31.179248-154.60538133-19.9586912-47.26535787-48.65551467-89.7644608-85.09750293-126.30574614-36.44198827-36.44198827-78.9410912-65.13881173-126.30574614-85.09750293C617.65197547-2.662400000000048 565.62036373-13.187878400000045 512-13.187878400000045c-53.62036373 0-105.65197547 10.5254784-154.60538133 31.179248-47.26535787 19.9586912-89.7644608 48.65551467-126.30574614 85.09750293-36.44198827 36.44198827-65.13881173 78.9410912-85.09750293 126.30574614C125.3376 278.34802453 114.8121216 330.37963627 114.8121216 384c0 53.62036373 10.5254784 105.65197547 31.179248 154.60538133 19.9586912 47.26535787 48.65551467 89.7644608 85.09750293 126.30574614s78.9410912 65.13881173 126.30574614 85.09750293C406.34802453 770.6624 458.37963627 781.1878784 512 781.1878784c69.40858133 0 137.82419413-18.17134507 197.6009696-52.52809707 9.5325088-5.46133333 21.6467392-2.18453333 27.10807253 7.34797654s2.18453333 21.6467392-7.34797546 27.10807253C663.52717547 800.94797547 588.3593696 820.90666667 512 820.90666667c-58.9824 0-116.17745493-11.518448-170.0957088-34.356752-52.03161173-22.04392747-98.80048533-53.52106667-138.9164608-93.63704214s-71.59311467-86.884848-93.63704213-138.9164608C86.61178133 500.17745493 75.09333333 442.9824 75.09333333 384s11.518448-116.17745493 34.356752-170.0957088c22.04392747-52.03161173 53.52106667-98.80048533 93.63704214-138.9164608s86.884848-71.59311467 138.9164608-93.63704213C395.82254507-41.388218670000015 453.0176-52.90666667000005 512-52.90666667000005s116.17745493 11.518448 170.0957088 34.356752c52.03161173 22.04392747 98.80048533 53.52106667 138.9164608 93.63704214s71.59311467 86.884848 93.63704213 138.9164608C937.38821867 267.82254507000005 948.90666667 325.0176 948.90666667 384c0 112.60276373-42.69769707 219.5456-120.34792747 301.1677088zM345.1810912 482.0061088m-41.70472747 0a41.70472747 41.70472747 0 1 1 83.40945494 0 41.70472747 41.70472747 0 1 1-83.40945494 0ZM678.8189088 482.0061088m-41.70472747 0a41.70472747 41.70472747 0 1 1 83.40945494 0 41.70472747 41.70472747 0 1 1-83.40945494 0ZM710.09745493 277.1564608c-11.8163392-33.4630784-37.3356608-63.847952-71.79170986-85.39539413-36.44198827-22.73900587-80.13265493-34.7539392-126.30574507-34.7539392s-89.86375787 12.01493333-126.30574507 34.7539392c-34.55534507 21.54744213-60.07466667 51.93231467-71.79170986 85.39539413-3.67398827 10.32688533-14.99384213 15.78821867-25.3207264 12.1142304-10.32688533-3.67398827-15.78821867-14.99384213-12.1142304-25.32072747 14.795248-41.9033216 46.07379413-79.53687253 88.27500586-105.8505696 42.69769707-26.71088533 93.7363392-40.81105493 147.35670294-40.81105493s104.65900587 14.1001696 147.35670293 40.81105493c42.10191467 26.31369707 73.47975787 63.947248 88.27500587 105.8505696 3.67398827 10.32688533-1.78734507 21.6467392-12.1142304 25.32072747-10.5254784 3.67398827-21.84533333-1.78734507-25.51932054-12.1142304z"  horiz-adv-x="1024" />

    
    <glyph glyph-name="jiazaizhong" unicode="&#58941;" d="M300.552 99.41399999999999q0-30.284-21.427-51.711t-51.711-21.427q-29.712 0-51.425 21.713t-21.713 51.425q0 30.284 21.427 51.711t51.711 21.427 51.711-21.427 21.427-51.711z m284.553-117.707q0-30.284-21.427-51.71t-51.71-21.428-51.712 21.427-21.427 51.711 21.427 51.711 51.711 21.427 51.711-21.427 21.427-51.71z m-402.26 402.26q0-30.284-21.427-51.71t-51.71-21.428-51.712 21.427-21.427 51.711 21.427 51.711 51.711 21.427 51.711-21.427 21.427-51.71zM869.66 99.41399999999999q0-29.712-21.713-51.425t-51.426-21.713q-30.283 0-51.71 21.427t-21.428 51.711 21.427 51.711 51.711 21.427 51.711-21.427 21.428-51.711zM318.837 668.52q0-37.711-26.856-64.567t-64.567-26.855-64.567 26.855-26.856 64.567 26.856 64.568 64.567 26.855 64.567-26.855 26.856-64.568z m668.528-284.553q0-30.284-21.427-51.71t-51.71-21.428-51.712 21.427-21.427 51.711 21.427 51.711 51.711 21.427 51.711-21.427 21.427-51.71z m-365.69 402.26q0-45.711-31.998-77.71t-77.71-31.997-77.71 31.998-31.997 77.71 31.998 77.709T511.968 895.934t77.709-31.997 31.997-77.71zM924.511 668.52q0-53.139-37.712-90.565t-90.28-37.426q-53.139 0-90.565 37.426t-37.426 90.565q0 52.569 37.426 90.28t90.565 37.712q52.569 0 90.28-37.712t37.712-90.28z"  horiz-adv-x="1024" />

    
    <glyph glyph-name="device" unicode="&#32769;" d="M354.752 14.336000000000013h-0.544l0.544-2.272v2.272zM354.752-76.49599999999998v85.472l-0.368-1.664c-1.856-8.672-11.232-14.304-23.92-14.304H61.808c-12.592 0-21.952 5.568-23.824 14.144l-0.336 1.696v-85.36a15.072 15.072 0 0 1 2.752-12.512c4.128-5.44 11.92-8.544 21.408-8.544h268.672c9.488 0 17.312 3.104 21.472 8.56a15.168 15.168 0 0 1 2.8 12.512zM101.968-95.82399999999996c-22.544 0-41.376 19.968-41.376 43.92S79.392-8 101.968-8c22.56 0 41.376-19.968 41.376-43.904-0.016-23.952-18.832-43.92-41.376-43.92z m123.008 10.544h-36.304v64.992h36.304v-64.992z m47.904-0.528h-36.048v65.52h36.048v-65.52z m50.56 1.04h-36.784v64.224h36.784v-64.224zM330.48 0.9120000000000346H61.808c-10.336 0-18.48 3.6-22.336 9.888-2.672 4.336-2.88 9.664-0.64 15.008l14.736 35.072c3.04 7.184 5.936 14.096 8.704 20.704l2.192 5.168h263.44l2.208-5.184c6.992-16.64 14.736-35.136 23.44-55.776 2.224-5.312 2-10.592-0.656-14.976-3.824-6.192-12.208-9.904-22.416-9.904zM127.104-53.50400000000002l0.016 0.832c0 14.144-11.12 25.952-24.448 25.952l-0.864 0.064c-13.296-0.352-24-11.968-24-26.208 0-14.416 11.04-26.176 24.64-26.176 13.264 0 24.112 11.168 24.64 25.12l0.016 0.416z m-24.656 38.56c18.896 0 34.24-16.32 34.24-36.352s-15.344-36.352-34.24-36.352c-18.88 0-34.24 16.32-34.24 36.352 0.016 20.048 15.376 36.352 34.24 36.352zM102.448-14.576000000000022c19.056 0 34.608-16.448 34.608-36.72s-15.536-36.72-34.608-36.72c-19.072 0-34.592 16.464-34.592 36.72 0.016 20.272 15.504 36.72 34.592 36.72z m34.256-36.72c0 20.048-15.344 36.352-34.24 36.352-18.88 0-34.24-16.32-34.24-36.352s15.344-36.352 34.24-36.352c18.88-0.016 34.24 16.32 34.24 36.352zM190.448-24.015999999999963h32.704v-7.84h-32.704v7.84zM190.448-32.624000000000024h32.704v-7.456h-32.704v7.456zM190.448-40.75199999999995h32.704v-7.472h-32.704v7.472zM190.448-49.087999999999965h32.704v-7.472h-32.704v7.472zM190.448-57.327999999999975h32.704v-7.44h-32.704v7.44zM190.448-65.74400000000003h32.704v-7.44h-32.704v7.44zM190.448-74.03200000000004h32.704v-7.424h-32.704v7.424zM238.368-24.111999999999966h32.688v-7.84h-32.688v7.84zM238.368-32.72000000000003h32.688v-7.424h-32.688v7.424zM238.368-40.831999999999994h32.688v-7.472h-32.688v7.472zM238.368-49.18399999999997h32.688v-7.44h-32.688v7.44zM238.368-57.42399999999998h32.688v-7.44h-32.688v7.44zM238.368-65.84000000000003h32.688v-7.44h-32.688v7.44zM238.368-74.096h32.688v-7.472h-32.688v7.472zM288.432-23.888000000000034h32.704v-7.84h-32.704v7.84zM288.432-32.48000000000002h32.704v-7.456h-32.704v7.456zM288.432-40.60799999999995h32.704v-7.472h-32.704v7.472zM288.432-48.94399999999996h32.704v-7.488h-32.704v7.488zM288.432-57.168000000000006h32.704v-7.456h-32.704v7.456zM288.432-65.63199999999995h32.704v-7.44h-32.704v7.44zM288.432-73.856h32.704v-7.504h-32.704v7.504zM517.6 380.48h-90.16v67.616h90.176v15.84h-90.176v67.632h183.376v66.4H403.904v-440.48h206.912v46.944H517.6V380.48z m-52.672-92.128h-37.68v20.976h37.68v-20.976z m0 37.92h-37.68v20.992h37.68v-20.976z m-23.488 105.664h76.16v-37.76h-76.16v37.76z m0 84.704h76.16v-37.744h-76.16v37.76z m103.456-8.96v-280.192h469.696V507.68H544.896z m442.08-252.56h-414.4V480.064h414.4v-224.944z m-128.176-42.768h-158.096v-31.68h-31.376v-23.168h220.832v23.168h-31.36v31.68zM122.096 598.336h36.752v-57.184H122.096zM121.76 515.6320000000001h36.752v-57.184H121.76zM157.504 392.848h71.984v-32.352H157.504zM121.76 431.904h36.752v-116.4H121.76zM121.408 281.808h36.752v-57.184H121.408zM121.088 199.10400000000004h36.752v-57.168H121.088zM267.776 392.848h81.152v-32.32h-81.152zM273.312 836.96h-12.592v-145.168a5.408 5.408 0 0 0-0.928-3.04h13.504c3.312 0 5.984-2.48 5.984-5.552s-2.72-5.504-5.984-5.504H26.048c-3.296 0-5.984 2.432-5.984 5.504 0 3.072 2.72 5.552 5.984 5.552h13.424a6.112 6.112 0 0 0-0.928 3.04V836.96h-12.496c-3.296 0-5.984 2.448-5.984 5.552S22.784 848 26.048 848h116.24V867.888c0 3.328 2.64 6.08 5.568 6.08 2.96 0 5.568-2.752 5.568-6.08V848h119.888c3.312 0 5.984-2.432 5.984-5.536-0.016-3.072-2.688-5.504-5.984-5.504z m-23.616-145.168V836.96H148l-0.176-0.032-0.112 0.032H49.712v-145.2a5.648 5.648 0 0 0-0.944-3.04h201.76a6.752 6.752 0 0 0-0.832 3.072zM55.648 666.528h188c3.312 0 6.016-2.624 6.016-5.536 0-2.944-2.624-5.568-5.952-5.568H157.088v-5.376c0-0.4-0.144-0.752-0.256-1.136l24.464-24.4a5.76 5.76 0 0 0-4.048-9.792 5.664 5.664 0 0 0-4.048 1.712l-21.728 21.712-21.648-21.712a5.632 5.632 0 0 0-8.064 0 5.664 5.664 0 0 0 0 8.08l24.464 24.528c-0.064 0.352-0.224 0.672-0.224 1.008v5.376H55.648c-3.296 0-6 2.64-6 5.568 0.016 2.912 2.704 5.536 6 5.536zM133.648 780.864H111.776v-33.312h-14.16l25.184-33.424L147.952 747.52h-14.16l-0.144 33.344m0 0zM111.776 811.552h21.888v-7.648H111.776v7.648m0 0zM111.776 795.84h21.888v-7.632H111.776V795.84m0 0zM169.856 811.552l-25.168-33.44h14.16v-33.296h21.872l0.128 33.296h14.144l-25.136 33.44m0 0zM158.864 721.792h21.92v-7.632h-21.92v7.632m0 0zM158.864 737.504h21.92v-7.648h-21.92v7.648m0 0z"  horiz-adv-x="1024" />

    
    <glyph glyph-name="gouxuankuangyidagou" unicode="&#58919;" d="M18.244 896h987.512c10.072 0 18.239-8.167 18.239-18.238v-987.514c0-10.07-8.167-18.236-18.239-18.236H18.244c-10.106 0-18.239 8.167-18.239 18.236V877.762C0.005 887.833 8.138 896 18.244 896z m969.273-36.475H36.447v-951.037h951.07V859.525zM91.298 357.313c-7.111 7.11-7.111 18.68 0 25.79 7.146 7.114 18.68 7.114 25.793 0l12.52-12.484c0.309-0.343 0.613-0.65 0.918-0.99l236.722-236.135L906.91 673.136c7.113 7.11 18.649 7.11 25.793 0 7.111-7.112 7.111-18.681 0-25.792l-552.52-552.5-0.033 0.032c-7.08-7.076-18.58-7.111-25.692-0.033l-249.616 249.03c-0.374 0.273-0.715 0.612-1.022 0.919L91.3 357.313z"  horiz-adv-x="1024" />

    
    <glyph glyph-name="add1" unicode="&#58911;" d="M510.352119-16.416237000000024c-220.548741 0-399.339141 178.82643-399.339141 399.403615S289.803378 782.377719 510.352119 782.377719c220.550637 0 399.341037-178.813156 399.341037-399.390341S730.902756-16.416237000000024 510.352119-16.416237000000024zM510.352119 732.455822c-192.982281 0-349.421037-156.461511-349.421037-349.468444S317.369837 33.51703699999996 510.352119 33.51703699999996s349.421037 156.463407 349.421037 349.470341S703.3344 732.455822 510.352119 732.455822zM660.104533 358.02074100000004L535.313067 358.02074100000004l0-124.81043c0-13.778489-11.174874-24.957156-24.959052-24.957156-13.784178 0-24.957156 11.178667-24.957156 24.957156l0 124.81043-124.795259 0c-13.784178 0-24.959052 11.17677-24.959052 24.966637 0 13.780385 11.17677 24.957156 24.959052 24.957156l124.795259 0 0 124.816119c0 13.778489 11.174874 24.951467 24.957156 24.951467 13.786074 0 24.959052-11.171081 24.959052-24.951467l0-124.816119 124.791467 0c13.786074 0 24.959052-11.17677 24.959052-24.957156C685.063585 369.19751099999996 673.890607 358.02074100000004 660.104533 358.02074100000004z"  horiz-adv-x="1024" />

    
    <glyph glyph-name="caidanshu" unicode="&#58993;" d="M603.022 657.067c0 50.067-40.956 91.022-91.022 91.022s-91.022-40.956-91.022-91.022 40.956-91.022 91.022-91.022 91.022 40.956 91.022 91.022z m0-546.134c0 50.067-40.956 91.022-91.022 91.022s-91.022-40.956-91.022-91.022 40.956-91.022 91.022-91.022 91.022 40.956 91.022 91.022z m0 273.067c0 50.067-40.956 91.022-91.022 91.022S420.978 434.066 420.978 384s40.956-91.022 91.022-91.022 91.022 40.956 91.022 91.022z"  horiz-adv-x="1024" />

    
    <glyph glyph-name="caidanheng" unicode="&#58975;" d="M238.933 475.022c-50.067 0-91.022-40.956-91.022-91.022s40.956-91.022 91.022-91.022 91.022 40.956 91.022 91.022-40.956 91.022-91.022 91.022z m546.134 0c-50.067 0-91.022-40.956-91.022-91.022s40.956-91.022 91.022-91.022 91.022 40.956 91.022 91.022-40.956 91.022-91.022 91.022z m-273.067 0c-50.067 0-91.022-40.956-91.022-91.022s40.956-91.022 91.022-91.022 91.022 40.956 91.022 91.022-40.956 91.022-91.022 91.022z"  horiz-adv-x="1024" />

    
    <glyph glyph-name="house" unicode="&#32768;" d="M967.2394666666667 2.460800000000063h-106.0064V434.4384c0 39.75146666666667-31.8016 71.55199999999999-71.55306666666667 71.55199999999999H646.5717333333332V720.6538666666667c0 42.404266666666665-37.104 76.85546666666667-82.15573333333333 76.85546666666667H209.29173333333335c-42.4 0-66.25173333333333-34.4512-66.25173333333333-76.85546666666667v-718.1941333333333H63.531733333333364c-15.898666666666665 0-26.4992-13.248-26.4992-26.50026666666667s10.600533333333335-26.506666666666668 23.851733333333335-26.506666666666668h906.3552c13.252266666666666 0 23.848533333333332 13.2544 23.848533333333332 26.506666666666668s-10.596266666666665 26.50133333333333-23.848533333333332 26.50133333333333zM787.0250666666667 452.9909333333333c10.606933333333334 0 18.552533333333333-7.952 18.552533333333333-18.552533333333333v-431.9776H646.5717333333332V452.9909333333333h140.45333333333335zM196.0448 720.6538666666667c0 13.252266666666666 0 23.850666666666665 13.246933333333333 23.850666666666665H564.4159999999999c15.897599999999999 0 29.149866666666664-10.599466666666666 29.149866666666664-23.850666666666665v-718.1941333333333H196.0448V720.6538666666667z m0 0M341.8005333333333 564.2933333333333H302.048c-5.300266666666667 0-10.600533333333335 5.300266666666667-10.600533333333335 10.600533333333335v42.404266666666665c0 5.2992 5.2992 10.600533333333335 10.600533333333335 10.600533333333335h39.75253333333333c5.2992 0 10.603733333333334-5.301333333333333 10.603733333333334-10.600533333333335v-39.75253333333333c2.6464-7.952-2.6517333333333335-13.252266666666666-10.603733333333334-13.252266666666666z m0-127.2064H302.048c-5.300266666666667 0-10.600533333333335 5.300266666666667-10.600533333333335 10.599466666666666v39.75573333333333c0 5.300266666666667 5.2992 10.599466666666666 10.600533333333335 10.599466666666666h39.75253333333333c5.2992 0 10.603733333333334-5.2992 10.603733333333334-10.599466666666666v-39.75573333333333c2.6464-5.300266666666667-2.6517333333333335-10.599466666666666-10.603733333333334-10.599466666666666z m0-127.2064H302.048c-5.300266666666667 0-10.600533333333335 5.297066666666667-10.600533333333335 10.597333333333333v39.75786666666667c0 5.300266666666667 5.2992 10.600533333333335 10.600533333333335 10.600533333333335h39.75253333333333c5.2992 0 10.603733333333334-5.300266666666667 10.603733333333334-10.600533333333335v-39.75786666666667c2.6464-5.300266666666667-2.6517333333333335-10.597333333333333-10.603733333333334-10.597333333333333z m127.2064 254.4128h-39.75253333333333c-5.2992 0-10.5984 5.300266666666667-10.5984 10.600533333333335v42.404266666666665c0 5.2992 5.2981333333333325 10.600533333333335 10.5984 10.600533333333335h39.75253333333333c5.300266666666667 0 10.604800000000001-5.301333333333333 10.604800000000001-10.600533333333335v-39.75253333333333c2.647466666666667-7.952-2.6528-13.252266666666666-10.604800000000001-13.252266666666666z m0-127.2064h-39.75253333333333c-5.2992 0-10.5984 5.300266666666667-10.5984 10.599466666666666v39.75573333333333c0 5.300266666666667 5.2981333333333325 10.599466666666666 10.5984 10.599466666666666h39.75253333333333c5.300266666666667 0 10.604800000000001-5.2992 10.604800000000001-10.599466666666666v-39.75573333333333c2.647466666666667-5.300266666666667-2.6528-10.599466666666666-10.604800000000001-10.599466666666666z m0-127.2064h-39.75253333333333c-5.2992 0-10.5984 5.297066666666667-10.5984 10.597333333333333v39.75786666666667c0 5.300266666666667 5.2981333333333325 10.600533333333335 10.5984 10.600533333333335h39.75253333333333c5.300266666666667 0 10.604800000000001-5.300266666666667 10.604800000000001-10.600533333333335v-39.75786666666667c2.647466666666667-5.300266666666667-2.6528-10.597333333333333-10.604800000000001-10.597333333333333z m0 0"  horiz-adv-x="1024" />

    
    <glyph glyph-name="home" unicode="&#59022;" d="M897.2544 482.87573333l-1.3056-589.5168-767.3856 0.4864V483.87413333l76.032 0.512v-514.6368h154.2144v384.512h306.304v-384.512h154.7776V483.51573333l77.3632-0.64z m-308.4032-205.2096h-153.8048v-307.8912h153.8048V277.66613333z m378.2656 54.9632L455.168 835.05493333l56.8832 55.8592L1024 388.46293333l-56.8832-55.8336z m-910.1568 0l-56.8832 55.8336L512.0512 890.91413333l56.8576-55.8592L56.96 332.62933333z"  horiz-adv-x="1024" />

    
    <glyph glyph-name="shuaxin" unicode="&#58982;" d="M508.66015625 74.09765625c-41.66015625 0-82.00195313 8.17382813-120.05859375 24.2578125-36.73828125 15.55664063-69.69726563 37.79296875-97.99804688 66.09375s-50.53710938 61.25976563-66.09374999 97.99804688c-16.08398438 38.05664063-24.2578125 78.3984375-24.2578125 120.05859374s8.17382813 82.00195313 24.2578125 120.05859375c15.55664063 36.73828125 37.79296875 69.69726563 66.09375 97.99804688s61.25976563 50.53710938 97.99804687 66.09375c38.05664063 16.08398438 78.3984375 24.2578125 120.05859375 24.2578125 66.18164063 0 129.28710938-20.65429688 182.4609375-59.765625 4.39453125-3.25195313 8.87695313-6.6796875 13.09570313-10.1953125 10.10742188-8.34960938 11.6015625-23.29101563 3.25195312-33.3984375s-23.29101563-11.6015625-33.3984375-3.25195313c-3.60351563 2.98828125-7.3828125 5.88867188-11.07421875 8.61328125-45 33.046875-98.34960938 50.53710938-154.3359375 50.53710938-143.87695313 0-260.94726563-117.0703125-260.94726563-260.94726563s117.0703125-260.94726563 260.94726563-260.94726562 260.94726563 117.0703125 260.94726563 260.94726563c0 13.09570313 10.63476563 23.73046875 23.73046874 23.73046874s23.73046875-10.63476563 23.73046875-23.73046875c0-41.66015625-8.17382813-82.00195313-24.2578125-120.05859374-15.55664063-36.73828125-37.79296875-69.69726563-66.09374999-97.99804688s-61.25976563-50.53710938-97.99804688-66.09375c-37.96875-16.08398438-78.3984375-24.2578125-120.05859375-24.2578125zM581.609375 547.125c-10.72265625 0-20.390625 7.29492188-23.02734375 18.19335938-3.07617188 12.74414063 4.74609375 25.57617188 17.49023438 28.65234374l92.63671874 22.32421876-11.42578125 102.56835937c-1.49414063 13.0078125 7.91015625 24.78515625 20.91796875 26.19140625 13.0078125 1.49414063 24.78515625-7.91015625 26.19140625-20.91796875l13.7109375-123.3984375c1.31835938-11.86523438-6.41601563-22.93945313-18.01757812-25.6640625l-113.02734375-27.24609375c-1.7578125-0.43945313-3.60351563-0.703125-5.44921875-0.703125z"  horiz-adv-x="1024" />

    
    <glyph glyph-name="weibiaoti-" unicode="&#58912;" d="M584.145455-41.890908999999965h-144.29091l-48.872727 132.654545-134.981818-72.145454-104.727273 114.036363 72.145455 130.327273-137.309091 34.909091v148.945455l134.981818 48.872727-69.818182 134.981818 111.709091 111.709091 128-79.127273 39.563637 146.618182h160.581818l34.909091-125.672727L758.690909 733.090909l114.036364-102.4-74.472728-130.327273 139.636364-41.890909v-137.309091L800.581818 267.63636399999996l69.818182-134.981819-104.727273-93.090909-132.654545 60.509091-48.872727-141.963636z m-111.709091 46.545454h76.8l51.2 155.927273 153.6-67.490909 55.854545 48.872727-76.8 148.945455 155.927273 60.509091v72.145454l-160.581818 48.872728 83.781818 148.945454-65.163637 58.181818-155.927272-58.181818-39.563637 139.636364H465.454545l-46.545454-172.218182-148.945455 93.090909L209.454545 621.3818180000001l79.127273-151.272727-155.927273-55.854546v-79.127272l160.581819-41.890909L209.454545 139.63636399999996l58.181819-62.836364 151.272727 81.454545 53.527273-153.6zM516.654545 204.79999999999995c-97.745455 0-179.2 79.127273-179.2 179.2s79.127273 179.2 179.2 179.2 179.2-79.127273 179.2-179.2-81.454545-179.2-179.2-179.2z m0 311.854545c-72.145455 0-132.654545-60.509091-132.654545-132.654545s60.509091-132.654545 132.654545-132.654545 132.654545 60.509091 132.654546 132.654545c-2.327273 72.145455-60.509091 132.654545-132.654546 132.654545z"  horiz-adv-x="1024" />

    
    <glyph glyph-name="video" unicode="&#59117;" d="M960 704h-28.384c-16.8 0-32.928-6.624-44.928-18.432L800 600.0640000000001V640a96 96 0 0 1-96 96H96C43.072 736 0 692.96 0 640v-512a96 96 0 0 1 96-96h608c52.992 0 96 43.008 96 96v39.072l86.688-85.504c12-11.808 28.128-18.432 44.928-18.432H960a64 64 0 0 1 64 64V640a64 64 0 0 1-64 64zM96 96c-17.664 0-32 14.368-32 32V640a32 32 0 0 0 32 32h608c17.632 0 32-14.336 32-32v-512c0-17.632-14.368-32-32-32H96z m864 31.136h-32l-128 128V256l-32 32v192l160 160h32v-512.864z"  horiz-adv-x="1024" />

    
    <glyph glyph-name="website" unicode="&#59310;" d="M124.274484 50.39401799999996l0.127942-0.213237c0.341179-0.639711 1.023537-0.852948 1.450012-1.450011a513.346591 513.346591 0 0 1 213.151637-146.109946c1.151479-0.725006 2.516196-0.895595 3.795618-1.364717C395.767747-117.38080100000002 452.488771-128 511.768638-128c60.388699 0 118.047966 11.045673 171.868967 30.364939l0.767653 0.255885a513.261296 513.261296 0 0 1 227.48116 162.955663c0.469121 0.767653 1.279422 1.279422 1.663248 2.13237v0.085294a508.996558 508.996558 0 0 1 0.085295 631.863679c-0.17059 0.213237-0.383826 0.341179-0.426474 0.597063A513.474533 513.474533 0 0 1 708.031911 856.30168c-1.279422 0.469121-2.516196 1.151479-3.838265 1.407364a508.527437 508.527437 0 0 1-385.1059-0.085295c-0.98089-0.17059-1.833838-0.682358-2.77208-0.98089a513.986302 513.986302 0 0 1-185.516132-132.206898 21.750167 21.750167 0 0 1-6.52505-7.036819v-0.213236a509.081853 509.081853 0 0 1 0-666.749241zM149.521737 678.462079c21.110456-11.173615 42.647386-21.281046 64.525496-30.279645a834.609354 834.609354 0 0 1-35.269389-242.109213H45.632704a464.941808 464.941808 0 0 0 103.889033 272.388858z m339.984965 171.485141v-219.378156A777.248619 777.248619 0 0 0 269.531483 674.751756a797.63407 797.63407 0 0 0 68.875529 142.61286 465.027102 465.027102 0 0 0 151.09969 32.539956z m195.623562-32.582604a764.66764 764.66764 0 0 0 73.353505-155.918845 787.398697 787.398697 0 0 0-224.453195-32.156129V849.904572c53.181291-2.516196 104.059623-13.689811 151.09969-32.582603z m292.774308-411.291395h-133.059846a827.060766 827.060766 0 0 1-30.962002 226.457622c23.754594 8.529477 47.765073 18.381024 72.244673 29.725229a464.046212 464.046212 0 0 0 91.777175-256.182851z m-91.777175-300.706722c-26.867853 12.495684-54.162181 23.456063-81.712393 32.881135 21.750167 68.790234 35.397331 146.280536 39.278243 223.344363h134.211325a464.046212 464.046212 0 0 0-91.777175-256.225498z m-227.822339-164.917444a464.856513 464.856513 0 0 0-124.274484-22.731057v220.700225c72.074083 0.383826 143.465808-9.595662 213.364874-29.128165-18.295729-46.400357-41.623849-87.171258-70.879956-137.367231l-18.210434-31.473772z m-292.689014-0.170589a2825.261413 2825.261413 0 0 1-31.729655 55.612192c-20.342803 34.842915-37.956174 65.719623-52.968054 100.903716a778.69863 778.69863 0 0 0 208.588367 40.30178v-219.420803a465.282987 465.282987 0 0 0-123.890658 22.603115z m123.890658 645.681431v-179.886676H223.259068A788.16635 788.16635 0 0 0 255.884319 632.4029009999999c75.699111-26.867853 153.999713-42.476797 233.707678-46.485651z m282.027167 32.838488c19.361913-69.34465 29.000223-140.651081 28.829633-212.725164h-266.332928V584.168707h1.194126c80.177087-0.042647 159.373283 11.941268 236.266522 34.629678z m-237.545943-435.984232v178.735197h265.138802c-3.880912-72.841736-16.80307-145.768767-37.231168-210.166321a835.590244 835.590244 0 0 1-227.864986 31.431124z m-44.481224 178.735197v-179.844029a823.73427 823.73427 0 0 1-223.685542-43.073861c-22.68841 67.766697-37.316463 146.323183-41.367965 222.91789h265.053507z m-309.620026 0c4.136796-83.119756 19.57515-166.410102 44.140045-238.143007-25.46049-10.064783-50.323916-21.451635-74.462337-34.288498a464.685923 464.685923 0 0 0-103.93168 272.431505h134.253972z m0.426474-306.634709c19.148677 9.723604 38.723827 18.636908 58.768099 26.611969 15.950123-38.126764 34.75762-70.879956 56.29455-107.983183l2.814727-4.861802a468.993309 468.993309 0 0 0-117.877376 86.233016z m546.057137-85.721247c24.820779 42.945918 46.570946 82.73593 63.715195 126.918622 22.475173-7.67653 44.694461-16.504539 66.657865-26.356085a469.718315 469.718315 0 0 0-130.37306-100.562537zM856.785995 697.781345c-18.892792-8.444183-37.5297-16.078065-55.953371-22.68841a814.138608 814.138608 0 0 1-44.651814 106.191992 471.552152 471.552152 0 0 0 100.647832-83.503582zM267.484408 781.370222c-14.926585-29.426697-28.147275-59.706341-39.534127-90.838933-16.120712 6.738287-31.98554 14.073638-47.722426 22.091346a471.296268 471.296268 0 0 0 87.256553 68.70494z"  horiz-adv-x="1024" />

    
    <glyph glyph-name="website1" unicode="&#59309;" d="M780.2 136.79999999999995c-30.8 21.7-41.3 40.7-77.4 54.5 25.6 61 40.7 84.7 42.7 156.8h147c-4-100.4-46-145.7-112.3-211.3zM131.1 348.1h169.3c2-72.2 17.1-95.8 42.7-156.8-35.4-13.8-68.9-32.2-99.7-54.5-66.3 65.6-108.3 110.9-112.3 211.3z m104.4 263.2c29.5-24.3 62.3-43.3 97.8-58.4-19.7-54.5-30.8-91.9-32.2-154.9h-170c3.3 91.9 47.3 149.6 104.4 213.3z m313-212.6V518.1c47.9 1.3 72.2 10.5 115.5 25.6 18.4-51.8 28.9-86 30.8-145H548.5z m105.7-197.6c-40.7 13.1-61 20.3-105.7 21.7V348.1h146.3c-1.9-68.9-16.3-89.2-40.6-147z m37.4-58.4c32.2-12.5 40-28.9 67.6-47.9-52.5-45.3-116.2-74.8-184.4-86 37.4 38.1 91.8 83.4 116.8 133.9zM526.2 3.6000000000000227l22.3 168c40.7-1.3 57.1-7.9 93.8-19-27.6-57.1-66.9-107.6-114.8-149h-1.3z m-76.8 5.2c-68.2 11.2-131.9 41.3-185.1 86 28.2 19.7 58.4 35.4 89.9 47.9 23.7-49.2 55.9-94.5 95.2-133.9z m47.9 339.3v-125.3c-44.6-1.3-65-8.5-105.7-21.7-24.3 58.4-38.7 78.1-40.7 147h146.4zM381.8 543.7c43.3-15.1 67.6-23.6 115.5-25.6v-119.4H351c2 59 12.5 93.1 30.8 145z m-38 57.7c-32.2 13.1-61.7 30.8-89.2 52.5 54.5 52.5 116.8 92.5 194.9 105.7-45.4-45.3-81.4-99.1-105.7-158.2z m153.5 163.4v-196.2c-44.6 1.3-65 9.2-105 23 29.5 69.6 50.5 128.6 103.7 173.2h1.3z m76.8-4.6c78.7-13.8 151.6-50.5 209.3-105.7-29.5-22.3-46.6-38.1-81.4-52.5-25.5 60.5-83.9 114.3-127.9 158.2z m-46.6 4.6c55.1-46.6 98.4-106.3 126-173.2-40-13.8-60.4-21.7-105-23l-22.3 196.2h1.3zM496 4.2000000000000455c-47.2 39.4-63.7 89.9-92.5 149 36.7 11.8 53.8 17.7 94.5 19v-168h-2z m396.4 394.5h-147c-1.3 62.3-12.5 99.7-32.2 154.2 38.1 15.7 57.7 33.5 89.9 58.4 57.1-63.7 86-121.4 89.3-212.6zM511.8 831.8c-247.4 0-447.6-200.2-447.6-447.6s200.2-447.6 447.6-447.6 447.6 200.2 447.6 447.6S759.2 831.8 511.8 831.8z"  horiz-adv-x="1024" />

    
    <glyph glyph-name="shezhi" unicode="&#58900;" d="M512-63.799999999999955c-23.6 0-47.5 1.9-71.1 5.7-11 1.8-19.7 10.2-21.7 21.1-6.3 33.3-35.5 57.5-69.5 57.5-16 0-31.1-5.3-43.7-15.2-8.7-6.9-20.8-7.5-30.2-1.7-51.5 32-95.3 73.4-130.2 123.2-7 9.9-6.3 23.3 1.7 32.5 11.2 12.9 17.4 29.4 17.4 46.3 0 37.8-29.6 68.8-67.4 70.5-12.1 0.6-22.3 9.3-24.6 21.2-5.7 28.7-8.5 57.8-8.5 86.7 0 24.7 2.1 50 6.4 75.1 2.1 12.4 12.7 21.6 25.3 21.9 38.6 1 68.8 32.1 68.8 70.6 0 18.8-7.3 36.5-20.5 49.8-8.9 8.9-10.2 22.9-3.1 33.3 33.7 49.8 76.5 91.8 127.2 124.7 10.3 6.7 23.8 5.4 32.6-3.1 13.3-12.7 30.6-19.7 48.9-19.7 36.8 0 67.8 28.8 70.5 65.5 0.9 12.2 10.1 22.2 22.2 24.1 53.8 8.4 109.2 6.9 162.5-4.3 11.1-2.3 19.4-11.5 20.7-22.8 4.1-35.7 34.3-62.6 70.2-62.6 15.1 0 29.6 4.8 41.9 13.8 9.1 6.7 21.5 6.9 30.8 0.4 45.2-31.7 83.7-70.7 114.5-116.1 7.1-10.4 5.7-24.4-3.1-33.3-13.2-13.3-20.5-31-20.5-49.8 0-38.6 30.2-69.6 68.8-70.6 12.6-0.3 23.2-9.5 25.3-21.9 4.2-25.1 6.4-50.4 6.4-75.1 0-28.9-2.8-58.1-8.5-86.7-2.3-11.9-12.5-20.7-24.6-21.2-37.8-1.8-67.4-32.8-67.4-70.5 0-17 6.2-33.4 17.4-46.3 8-9.1 8.6-22.5 1.7-32.5-30.1-42.8-67.1-79.7-109.9-109.7-9.3-6.5-21.6-6.3-30.8 0.4-12.3 9.1-26.8 13.8-41.9 13.8-35.9 0-66.1-26.9-70.2-62.6-1.3-11.3-9.6-20.4-20.7-22.8-30.7-6.3-62-9.6-93.1-9.6z m-46.2 55.4c37.3-4.4 74.7-3.4 111.4 2.7C592 46.60000000000002 640 84 695.9 84c19.8 0 38.9-4.7 56.2-13.6 27.1 20.7 51.3 44.8 72.2 71.7-11.5 19.1-17.6 41-17.6 63.4 0 58.6 40.8 107.9 96.1 120.3 2.9 19.3 4.3 38.8 4.3 58.2 0 15.5-1 31.2-2.9 47-56.2 11.8-97.6 61-97.6 120.7 0 25.1 7.5 49.2 21.4 69.5-21.7 28.8-47.1 54.5-75.9 76.5-17.3-9-36.5-13.6-56.2-13.6-56 0-103.9 37.4-118.7 89.7-35.6 5.9-72 7-108 3.1-13.8-53.5-62.6-92.7-119.5-92.7-24.6 0-48.2 7.2-68.3 20.7-32.7-23.5-61.3-51.5-85.4-83.6 13.9-20.3 21.4-44.3 21.4-69.5 0-59.6-41.4-108.9-97.6-120.7-1.9-15.8-2.9-31.5-2.9-47 0-19.4 1.5-38.8 4.3-58.2 55.4-12.4 96.1-61.7 96.1-120.3 0-22.5-6.2-44.4-17.6-63.4 25.5-32.9 55.6-61.2 89.9-84.6 18.3 10.3 38.8 15.7 60.1 15.7 52.6-0.1 98.7-33.5 116.1-81.7zM512 190.20000000000005c-106.9 0-193.8 87-193.8 193.8s87 193.8 193.8 193.8 193.8-87 193.8-193.8S618.9 190.20000000000005 512 190.20000000000005z m0 335c-77.8 0-141.2-63.3-141.2-141.2S434.2 242.89999999999998 512 242.89999999999998 653.2 306.20000000000005 653.2 384 589.8 525.2 512 525.2z"  horiz-adv-x="1024" />

    
    <glyph glyph-name="fanhui" unicode="&#58972;" d="M901.7344 439.3472H256.3072l149.0432 149.0432c21.7344 21.7344 21.7344 56.96512 0 78.69952-21.72416 21.7344-56.95488 21.7344-78.67904 0L82.91328 423.33184c-21.72416-21.7344-21.72416-56.94464 0-78.67904l243.75808-243.74272c21.72416-21.7344 56.95488-21.7344 78.67904 0 21.7344 21.72928 21.7344 56.94464 0 78.67904l-148.46976 148.47488H901.7344c30.73024 0 55.64416 24.91904 55.64416 55.63904 0 30.72-24.91392 55.64416-55.64416 55.64416z"  horiz-adv-x="1024" />

    
    <glyph glyph-name="yingyong" unicode="&#59479;" d="M64 640v-512l448-256 448 256V640L512 896 64 640z m800-448l-352-224-352 224V576l352 224 352-224v-384z m-310.4 150.4V96c0-19.2-12.8-32-32-32-9.6 0-16 3.2-22.4 9.6-6.4 6.4-9.6 12.8-9.6 22.4v246.4l-224 128c-9.6 6.4-16 19.2-16 32 3.2 12.8 9.6 22.4 22.4 25.6 9.6 3.2 16 0 25.6-3.2l224-128 220.8 128c6.4 3.2 16 6.4 25.6 3.2 9.6-3.2 16-6.4 19.2-16 9.6-16 3.2-35.2-12.8-44.8l-220.8-124.8z m0 0"  horiz-adv-x="1024" />

    
    <glyph glyph-name="weizhi" unicode="&#59157;" d="M512 896C315.64876 896 156.46689 736.81813 156.46689 540.4668899999999c0-208.00303 355.53311-668.46689 355.53311-668.46689S867.53311 329.23173999999995 867.53311 540.4668899999999C867.53311 736.81813 708.35124 896 512 896z m0-492.898176a137.365065 137.365065 0 1 0 137.365065 137.365066 137.365065 137.365065 0 0 0-137.365065-137.365066z"  horiz-adv-x="1024" />

    
    <glyph glyph-name="yingyong1" unicode="&#59480;" d="M1008.302 589.443l-218.61-218.61c-20.13-20.13-52.741-20.13-72.87 0l-218.583 218.61c-20.13 20.101-20.13 52.74 0 72.842l218.582 218.61c20.13 20.13 52.741 20.13 72.87 0l218.611-218.61c20.13-20.101 20.13-52.74 0-72.842zM753.67 841.177l-215.71-215.71 215.71-215.712 215.71 215.711-215.71 215.71z m-383.827-969.149H57.094c-31.417 0-56.863 25.447-56.863 56.864V241.639c0 31.389 25.446 56.864 56.863 56.864h312.748c31.388 0 56.863-25.475 56.863-56.864v-312.747c0-31.417-25.475-56.864-56.863-56.864z m0 369.611H57.094v-312.747h312.748V241.639z m0 142.158H57.094c-31.417 0-56.863 25.447-56.863 56.864V753.408c0 31.389 25.446 56.864 56.863 56.864h312.748c31.388 0 56.863-25.475 56.863-56.864v-312.747c0-31.417-25.475-56.864-56.863-56.864z m0 369.611H57.094v-312.747h312.748V753.408z m199.021-454.905h312.748c31.388 0 56.863-25.475 56.863-56.864v-312.747c0-31.417-25.475-56.864-56.863-56.864H568.863c-31.417 0-56.863 25.447-56.863 56.864V241.639c0 31.389 25.446 56.864 56.863 56.864z m0-369.611h312.748V241.639H568.863v-312.747z"  horiz-adv-x="1024" />

    
    <glyph glyph-name="shangyiye" unicode="&#58971;" d="M815.805 382.717l-287.461-287.639c-12.889-12.889-33.782-12.888-46.662 0-12.888 12.88-12.889 33.773 0 46.663l241.06 241.064-242.241 242.243c-12.88399999 12.879-12.884 33.774-1e-8 46.662 12.888 12.88399999 33.778 12.88399999 46.66100001 0l26.99-26.99-0.182-0.167 261.835-261.836ZM551.83900001 382.717l-287.46400002-287.639c-12.889-12.889-33.783-12.889-46.66199999 0-12.888 12.88-12.889 33.773 0 46.663l241.06 241.064-242.242 242.243c-12.88399999 12.879-12.884 33.774-1e-8 46.662 12.888 12.88399999 33.783 12.8841 46.66100001 0l26.995-26.98999999-0.186-0.16800001 261.837-261.836ZM551.83900001 382.717Z"  horiz-adv-x="1024" />

    
    <glyph glyph-name="shuaxin1" unicode="&#4098;" d="M146.7 271.20000000000005c-11.3 0-21.6 7.7-24.3 19.2-15.7 65.8-14.5 135.1 3.3 200.4 18.4 67.3 54.3 129.1 103.9 178.7 33.2 33.2 71.4 60.1 113.5 79.9 40.7 19.1 84.1 31.3 129.1 36 90 9.5 181.5-11.7 257.6-59.6 11.7-7.4 15.2-22.8 7.8-34.5-7.4-11.7-22.8-15.2-34.5-7.8-140.5 88.5-320.7 68.2-438.2-49.3C177.4 546.7 142.4 422.5 171 302c3.2-13.4-5.1-26.9-18.5-30.1-1.9-0.5-3.9-0.7-5.8-0.7zM515.5-19.399999999999977c-76 0-151.1 21.4-215.3 61.9-11.7 7.4-15.2 22.8-7.8 34.5 7.4 11.7 22.8 15.2 34.5 7.8C467.3-3.7999999999999545 647.5 16.5 765 134c87.2 87.2 122.4 211.1 94.1 331.3-3.2 13.4 5.2 26.9 18.6 30.1 13.4 3.2 26.9-5.2 30.1-18.6 15.5-65.7 14.2-134.8-3.6-199.9-18.4-67.1-54.3-128.8-103.8-178.3-33.2-33.2-71.4-60.1-113.5-79.9-40.7-19.1-84.1-31.3-129.1-36-14.1-1.4-28.2-2.1-42.3-2.1zM651.8 622.7c-11 0-21.1 7.4-24.1 18.5-3.6 13.3 4.3 27 17.7 30.6l91.4 24.5-24.5 91.4c-3.6 13.3 4.3 27 17.7 30.6 13.3 3.6 27-4.3 30.6-17.7l31-115.5c3.6-13.3-4.3-27-17.7-30.6l-115.5-31c-2.3-0.5-4.5-0.8-6.6-0.8zM290.7-45.799999999999955c-11.8 0-22.3 8.4-24.6 20.5l-21.7 117.6c-1.2 6.5 0.2 13.3 4 18.7s9.5 9.2 16.1 10.4l117.6 21.7c13.6 2.5 26.6-6.5 29.1-20s-6.5-26.6-20-29.1l-93-17.2 17.2-93c2.5-13.6-6.5-26.6-20-29.1-1.6-0.4-3.2-0.5-4.7-0.5z"  horiz-adv-x="1024" />

    
    <glyph glyph-name="shanchu1" unicode="&#58944;" d="M880 656H704v64c0 52.8-43.2 96-96 96H416c-52.8 0-96-43.2-96-96v-64H144c-17.6 0-32-14.4-32-32s14.4-32 32-32h48v-512c0-70.4 57.6-128 128-128h384c70.4 0 128 57.6 128 128V592h48c17.6 0 32 14.4 32 32s-14.4 32-32 32z m-496 64c0 17.6 14.4 32 32 32h192c17.6 0 32-14.4 32-32v-64H384v64z m384-640c0-35.2-28.8-64-64-64H320c-35.2 0-64 28.8-64 64V592h512v-512zM416 464c-17.6 0-32-14.4-32-32v-256c0-17.6 14.4-32 32-32s32 14.4 32 32V432c0 17.6-14.4 32-32 32zM608 464c-17.6 0-32-14.4-32-32v-256c0-17.6 14.4-32 32-32s32 14.4 32 32V432c0 17.6-14.4 32-32 32z"  horiz-adv-x="1024" />

    
    <glyph glyph-name="gouxuan" unicode="&#58885;" d="M366.336 0a53.44 53.44 0 0 0-37.696 15.488L15.616 325.44000000000005a52.416 52.416 0 0 0 0 74.624 53.696 53.696 0 0 0 75.392 0l275.328-272.64 566.656 561.088a53.632 53.632 0 0 0 75.392 0 52.416 52.416 0 0 0 0-74.624l-604.352-598.4a53.44 53.44 0 0 0-37.696-15.488z"  horiz-adv-x="1024" />

    
    <glyph glyph-name="shipin" unicode="&#59118;" d="M856.3 768H167.7c-21.9 0-39.7-17.8-39.7-39.7v-688.7c0-21.9 17.8-39.7 39.7-39.7h688.7c21.9 0 39.7 17.8 39.7 39.7V728.3c-0.1 21.9-17.9 39.7-39.8 39.7z m-10.9-717.4H178.6V717.4h666.8v-666.8zM385.1 234.29999999999995c6.1-3.5 13-5.3 19.8-5.3 6.9 0 13.7 1.8 19.8 5.3l199.7 115.3c12.2 7.1 19.8 20.2 19.8 34.3 0 14.1-7.6 27.3-19.8 34.3L424.8 533.7c-12.2 7.1-27.4 7.1-39.7 0-12.2-7.1-19.8-20.2-19.8-34.3v-230.6c0-14.2 7.6-27.4 19.8-34.5z m30.8 246L582.8 384l-166.9-96.3V480.3z"  horiz-adv-x="1024" />

    
    <glyph glyph-name="xiayiye" unicode="&#58970;" d="M581.333333 669.738667a33.322667 33.322667 0 0 0-5.376-47.744l-305.19466599-238.677334 303.70133299-237.226666a33.322667 33.322667 0 0 0 5.333333-47.786667 35.626667 35.626667 0 0 0-49.066666-5.205333l-337.621334 263.765333a33.536 33.536 0 0 0 0 52.949333l339.029334 265.173334a36.010667 36.010667 0 0 0 21.930666 7.466666 35.413333 35.413333 0 0 0 27.264-12.714666z m264.021334 0a33.322667 33.322667 0 0 0-5.376-47.744l-305.194667-238.677334 303.658667-237.226666a33.322667 33.322667 0 0 0 5.376-47.786667 35.626667 35.626667 0 0 0-49.109334-5.205333l-337.621333 263.765333a33.536 33.536 0 0 0 0 52.949333L796.16 674.986667a36.010667 36.010667 0 0 0 21.930667 7.466666 35.413333 35.413333 0 0 0 27.306666-12.714666z"  horiz-adv-x="1024" />

    


  </font>
</defs>
</svg>
